Chłopi [4 płyty Blu-Ray](1972) 1080i.Blu-Ray.AVC.LPCM / Film Polski

Chłopi [4 płyty Blu-Ray](1972) 1080i.Blu-Ray.AVC.LPCM / Film Polski

Chłopi [4 płyty Blu-Ray](1972) 1080i.Blu-Ray.AVC.LPCM / Film Polski

Gatunek: Obyczajowy
Produkcja: Polska
Premiera: 1972
Reżyseria: Jan Rybkowski
Obsada: Władysław Hańcza, Emilia Krakowska, Krystyna Królówna, Ignacy Gogolewski, Bronisław Pawlik, Jadwiga Chojnacka, August Kowalczyk, Magdalena Wołłejko, Tadeusz Janczar, Barbara Ludwiżanka, Franciszek Pieczka, Zdzisław Maklakiewicz, Andrzej Seweryn, Zofia Merle, Barbara Burska, Irena Karel, Tadeusz Fijewski, Maria Broniewska, Natalia Szymańska, Tadeusz Bartosiewicz, Witold Dederko, Aleksander Fogiel, Kazimierz Wichniarz, Alicja Sędzińska, Feliks Żukowski, Jerzy Święch, Franciszek Trzeciak, Lech Ordon, Barbara Marszałek, Andrzej Kowalczyk, Stanisław Marian Kamiński, Jolanta Czaplińska, Andrzej Łągwa, Józef Łodyński

Opis:

Telewizyjna adaptacja najgłośniejszej powieści Władysława Stanisława Reymonta, realistycznie ukazująca obraz wsi polskiej z przełomu XIX i XX wieku. Na szerokim tle obyczajowym życia społeczności wiejskiej, nierozerwalnie związanym z rytmem przyrody - w ciągu czterech pór roku, rozgrywają się dramatyczne dzieje rodziny Borynów.




Release:

Disc Title: CHLOPI BD 1
Disc Size: 47 996 436 130 bytes
Protection: AACS
BD-Java: No
Extras: 50Hz Content
BDInfo: 0.5.8

PLAYLIST REPORT:

Name: 00010.MPLS
Length: 3:23:36.400 (h:m:s.ms)
Size: 47 568 230 400 bytes
Total Bitrate: 31,15 Mbps

VIDEO:

Codec Bitrate Description
----- ------- -----------
MPEG-4 AVC Video 27990 kbps 1080i / 25 fps / 16:9 / High Profile 4.1

AUDIO:

Codec Language Bitrate Description
----- -------- ------- -----------
LPCM Audio Polish 1536 kbps 2.0 / 48 kHz / 1536 kbps / 16-bit

SUBTITLES:

Codec Language Bitrate Description
----- -------- ------- -----------
Presentation Graphics Polish 23,013 kbps

FILES:

Name Time In Length Size Total Bitrate
---- ------- ------ ---- -------------
00001.M2TS 0:00:00.000 0:51:13.680 11 963 406 336 31 138
00002.M2TS 0:51:13.680 0:49:30.160 11 570 608 128 31 165
00003.M2TS 1:40:43.840 0:51:34.080 12 045 010 944 31 143
00004.M2TS 2:32:17.920 0:51:18.480 11 989 204 992 31 156



Disc Title: CHLOPI BD 2
Disc Size: 36 087 504 874 bytes
Protection: AACS
BD-Java: No
Extras: 50Hz Content
BDInfo: 0.5.8

PLAYLIST REPORT:

Name: 00010.MPLS
Length: 2:32:39.959 (h:m:s.ms)
Size: 35 660 832 768 bytes
Total Bitrate: 31,14 Mbps

VIDEO:

Codec Bitrate Description
----- ------- -----------
MPEG-4 AVC Video 27988 kbps 1080i / 25 fps / 16:9 / High Profile 4.1

AUDIO:

Codec Language Bitrate Description
----- -------- ------- -----------
LPCM Audio Polish 1536 kbps 2.0 / 48 kHz / 1536 kbps / 16-bit

SUBTITLES:

Codec Language Bitrate Description
----- -------- ------- -----------
Presentation Graphics Polish 20,662 kbps

FILES:

Name Time In Length Size Total Bitrate
---- ------- ------ ---- -------------
00001.M2TS 0:00:00.000 0:50:46.680 11 860 193 280 31 143
00002.M2TS 0:50:46.680 0:50:55.520 11 898 279 936 31 152



Screeny

Chłopi [4 płyty Blu-Ray](1972) 1080i.Blu-Ray.AVC.LPCM / Film Polski Chłopi [4 płyty Blu-Ray](1972) 1080i.Blu-Ray.AVC.LPCM / Film Polski Chłopi [4 płyty Blu-Ray](1972) 1080i.Blu-Ray.AVC.LPCM / Film Polski Chłopi [4 płyty Blu-Ray](1972) 1080i.Blu-Ray.AVC.LPCM / Film Polski Chłopi [4 płyty Blu-Ray](1972) 1080i.Blu-Ray.AVC.LPCM / Film Polski Chłopi [4 płyty Blu-Ray](1972) 1080i.Blu-Ray.AVC.LPCM / Film Polski Chłopi [4 płyty Blu-Ray](1972) 1080i.Blu-Ray.AVC.LPCM / Film Polski

Chłopi [4 płyty Blu-Ray](1972) 1080i.Blu-Ray.AVC.LPCM / Film Polski


Płyta Blu-Ray nr 1


Aby zobaczyć ukryty tekst musisz być zalogowany i wykupić rangę
Super VIP lub rangę DONATOR - szczegóły na stronie w sekcji
Dotacja - (DONATOR.SUPER VIP).

Jeżeli nie masz konta zarejestruj się!


Płyta Blu-Ray nr 2


Aby zobaczyć ukryty tekst musisz być zalogowany i wykupić rangę
Super VIP lub rangę DONATOR - szczegóły na stronie w sekcji
Dotacja - (DONATOR.SUPER VIP).

Jeżeli nie masz konta zarejestruj się!



Płyta Blu-Ray nr 3


Aby zobaczyć ukryty tekst musisz być zalogowany i wykupić rangę
Super VIP lub rangę DONATOR - szczegóły na stronie w sekcji
Dotacja - (DONATOR.SUPER VIP).

Jeżeli nie masz konta zarejestruj się!



Płyta Blu-Ray nr 4


Aby zobaczyć ukryty tekst musisz być zalogowany i wykupić rangę
Super VIP lub rangę DONATOR - szczegóły na stronie w sekcji
Dotacja - (DONATOR.SUPER VIP).

Jeżeli nie masz konta zarejestruj się!







Podobne Posty


Komentarze: 0   Wyświetleń: 55  

Dodaj komentarz

Pogróbienie Kursywa Podkreślony tekst Przekreślony tekst | Wyrównaj do lewej Wyśrodkuj Wyrównaj do prawej | Wstaw emotikonę Wstaw linkWstaw zabezpieczony URL Wybór koloru | Ukryty tekst Wstaw cytat Konwertuj zaznaczony tekst do Cyrillicę Wstaw spoiler